Napaľovanie | Fórum

zive.cz
8.4.2005 10:44  |  Nevhodné
Pridať do obľúbených
Vypálení BIN souboru
Jak mohu vypálit BIN soubor? Jaký program je potřeba?
8 príspevkov
zxma
12.4.2005 01:24 | |
+0 -0
Reagovať
V podstate jakymkoliv vypalovacim programem ktery podporuje vypaleni CUE/BIN. Ale kdyz nevis v jakem formatu byl ten *.bin vytvoren (nemas k nemu prislusny *.cue soubor, tak to musis vyzkouset na CDRW. Priklad cue souboru, ktery rekne vypalovacce jak ma ten bin vypalit: FILE zkouska1.bin BINARY TRACK 01 MODE1/2048 INDEX 01 00:00:00 ------------------------------ FILE zkouska2.bin BINARY TRACK 02 MODE1/2352 INDEX 01 00:00:00 ----------------------------- FILE zkouska3.bin BINARY TRACK 03 MODE2/2352 INDEX 01 00:00:00
prochy
12.4.2005 01:25 | |
+0 -0
Reagovať
Vypalovani .bin umi Alocohol, myslim, ze i Nero ho dokaze vypalit a na dalsi si nemuzu vzpomenout :)
funkyhugoboss
12.4.2005 11:05 | |
+0 -0
Reagovať
v neru start smart > kopirováni a zálohovani > vypalit obraz na disk a už páliš
howard
12.4.2005 11:10 | |
+0 -0
Reagovať
Pokud chces nejaky free soft na paleni, tak urcite zkus Burn4Free.
jackal
12.4.2005 15:06 | |
+0 -0
Reagovať
Ja pouzivam Alcohol 120% a jistim to Nerem 6.6.0.8.Alcohol 120% vytvori virtualku a jeste muzes biny pouzivat.
gabelhirsch
12.4.2005 15:15 | |
+0 -0
Reagovať
Howard: Pokud chces nejaky free soft na paleni, tak urcite zkus Burn4Free. free burner je taky jako plugin do total commandera... docela dobrej...
robert7
19.4.2005 09:51 | |
+0 -0
Reagovať
Stáhl jsem webu bin soubor,ale bohuzel je bez zavadeciho souboru.Zkousel jsem ho vytvorit pomoci vzoru vyse uvedeneho z textoveho souboru,ale ani jedno RW po vypaleni neni citelne. Nefunguje mi ani ve virtualni mechanice napr. Daemon Tool. Nevite nekdo co s tim?
x__
19.4.2005 17:42 | |
+0 -0
Reagovať
Robert7: Stáhl jsem webu bin soubor,ale bohuzel je bez zavadeciho souboru.Zkousel jsem ho vytvorit pomoci vzoru vyse uvedeneho z textoveho souboru,ale ani jedno RW po vypaleni neni citelne. Nefunguje mi ani ve virtualni mechanice napr. Daemon Tool. Nevite nekdo co s tim??/quote] Zkus ho převést pomocí programu: BIN To ISO a vypálit (radši na zkoušku na CD-RW), také ale může být poškozený.